Download latest Raaz Reboot Torrent Movie 2016 on your desktops or mobiles. We provides you to Torrent English movie Download. Chose Torrents

Raaz Reboot Torrent

Release : 2016
Genres:    Drama. Thriller. Horror
Category: Bollywood
Language: Hindi

Movie Stars: Emraan-Hashmi,-Kriti-Kharbanda,-Gaurav-Arora
Movie Name: Raaz Reboot 2016 Hindi

Movie Quality: 720p HDRip.

Video ID : 1 Format : AVC Format/Info : Advanced Video Codec Format profile : [email protected] Format settings, CABAC : Yes Format settings, ReFrames : 5 frames Codec ID : V_MPEG4/ISO/AVC Duration : 2 h 7 min Bit rate : 4 564 kb/s Width : 1 920 pixels Height : 812 pixels Display aspect ratio : 2.35:1 Frame rate mode : Constant Frame rate : 24.000 FPS Color space : YUV Chroma subsampling : 4:2:0 Bit depth : 8 bits Scan type : Progressive Bits/(Pixel*Frame) : 0.122 Stream size : 4.06 GiB (90%) Default : Yes Forced : No Color range : Limited Color primaries : BT.709 Transfer characteristics : BT.709 Matrix coefficients : BT.709 Audio #1 ID : 2 Format : AC-3 Format/Info : Audio Coding 3 Mode extension : CM (complete main) Format settings, Endianness : Big Codec ID : A_AC3 Duration : 2 h 7 min Bit rate mode : Constant Bit rate : 384 kb/s Channel(s) : 6 channels Channel positions : Front: L C R, Side: L R, LFE Sampling rate : 48.0 kHz Frame rate : 31.250 FPS (1536 spf) Bit depth : 16 bits Compression mode : Lossy Stream size : 350 MiB (8%) Language : Hindi Default : Yes Forced : No

Raaz Reboot 2016 Movie download, And Watch Full movie

Story: Raaz Reboot is a 2016 Indian horror thriller film written and directed by Vikram Bhatt. It features Emraan Hashmi, Kriti Kharbanda and Gaurav Arora in the lead roles. The film is the fourth and final instalment in the horror film series, Raaz

Bollywood Torrent Movies 

Download Torrent

720p 1080p

Watch Online Via Single Links

flashx.tv
nowvideo.sx
vidgg.to
streamin.to
vodlocker.com
cloudy.ec

Free Download Via Resumeable Single Links

hubfiles.pw
indishare.me
bdupload.info
clicknupload.link
uploadmor.com
filecloud.io
uploadkadeh.com
uptobox.com
downace.com
filescdn.com
1fichier.com
uploadx.org
ozofiles.com
filefactory.com
filerio.in
userscloud.com
multiup.org
arabloads.net
embedupload.com
openload.co
tusfiles.net

You May Also Search For :

Bollywood Torrent Movies | Hollywood Torrent Movies | Hindi Dubbed Torrent Movies | Tamil Movies Torrent | Telugu Movies Torrent